Cel mai bun encoder din LUME!


SERIOS! ACUM, ÎN EXCLUSIVITATE! ȘOC! ȘOC! ȘOC! DOAR PE ANIMERONEWS, CEL MAI BUN ENCODER DIN LUME!

După jumate de pungă d-aia mare de Pufarine (bă, au fost bune, nu mint), mi-am adus aminte că am zis că scriu articol azi. Astăzi am să vă vorbesc despre CEL MAI BUN ENCODER DIN LUME, adică DmonHiro. Acest domn este un encoder român care habar nu are ce mama naibii face și crede că face bine. Cam ca majoritatea encoderilor de la noi.


Context în caz că nu înțelegeți: Anay i-a zis lui DmonHiro că nu există niciun BD scos pentru anime-ul respectiv, DmonHiro răspunzând că nu există BDMV-uri și apoi am intervenit eu. 

Pentru cine nu știe, DmonHiro a mai fost prins că a re-encodat (adică nu a folosit sursă lossless pentru encode, a folosit un .mkv sau .mp4). Din păcate nu am să vă las link pentru că nu vreau să primesc penalizare pentru că am postat link către ceva ilegal.

Bineînțeles, când am auzit că nu dă doi bani pe părerea mea, am descărcat un episod din torrent-ul la care am lăsat comentariu și am aruncat un ochi peste ce a făcut el. Am să mă leg strict de encode.

Encode-ul e varză, vă zic de pe acum. Dacă nu mă credeți, uitați setările:

General

Unique ID : 194408659577387660718417329232228502454 (0x9241BEF2D5148E378F07FD4F3B55CBB6)
Complete name : G:\[DmonHiro] Release The Spyce (BD, 720p)\01 - Golden Spirits.mkv
Format : Matroska
Format version : Version 2
File size : 526 MiB
Duration : 24 min 32 s
Overall bit rate : 2 997 kb/s
Encoded date : UTC 2019-01-08 23:19:53
Writing application : mkvmerge v8.5.2 ('Crosses') 32bit
Writing library : libebml v1.3.3 + libmatroska v1.4.4
Attachments : OpenSans-Semibold_1.ttf

Video

ID : 1
Format : AVC
Format/Info : Advanced Video Codec
Format profile : High 10@L3.1
Format settings : CABAC / 4 Ref Frames
Format settings, CABAC : Yes
Format settings, RefFrames : 4 frames
Codec ID : V_MPEG4/ISO/AVC
Duration : 24 min 32 s
Bit rate : 2 674 kb/s
Width : 1 280 pixels
Height : 720 pixels
Display aspect ratio : 16:9
Frame rate mode : Constant
Frame rate : 23.976 (24000/1001) FPS
Color space : YUV
Chroma subsampling : 4:2:0
Bit depth : 10 bits
Scan type : Progressive
Bits/(Pixel*Frame) : 0.121
Stream size : 469 MiB (89%)
Writing library : x264 core 148 r2638 7599210
Encoding settings : cabac=1 / ref=3 / deblock=1:1:-1 / analyse=0x3:0x113 / me=hex / subme=7 / psy=1 / psy_rd=1.00:0.00 / mixed_ref=1 / me_range=16 / chroma_me=1 / trellis=1 / 8x8dct=1 / cqm=0 / deadzone=21,11 / fast_pskip=1 / chroma_qp_offset=-2 / threads=6 / lookahead_threads=1 / sliced_threads=0 / nr=0 / decimate=1 / interlaced=0 / bluray_compat=0 / constrained_intra=0 / bframes=3 / b_pyramid=2 / b_adapt=1 / b_bias=0 / direct=1 / weightb=1 / open_gop=0 / weightp=2 / keyint=240 / keyint_min=23 / scenecut=40 / intra_refresh=0 / rc_lookahead=40 / rc=crf / mbtree=1 / crf=15.0 / qcomp=0.60 / qpmin=0 / qpmax=81 / qpstep=4 / ip_ratio=1.40 / aq=1:1.00
Default : Yes
Forced : No

Audio

ID : 2
Format : AAC LC
Format/Info : Advanced Audio Codec Low Complexity
Codec ID : A_AAC-2
Duration : 24 min 32 s
Bit rate : 319 kb/s
Channel(s) : 2 channels
Channel layout : L R
Sampling rate : 48.0 kHz
Frame rate : 46.875 FPS (1024 SPF)
Compression mode : Lossy
Delay relative to video : 9 ms
Stream size : 56.0 MiB (11%)
Language : Japanese
Default : Yes
Forced : No


Preset medium scrie pe encode. Cu mici modificări la crf, keyint, min-keyint și deblock. În rest e totul la fel. Dacă nu mă credeți, uitați:


Și ca să nu spuneți că am scris eu la panaramă, aveți setările aici.
În primul rând. SUNTEM ÎN 2019 și AQ-mode 3 a fost adăugat în versiunea Vanilla a x264. Apoi, cine mai folosește me=hex cu subme=7? Serios... E penibil rău. Da, astea două aduc viteză dar sunt degeaba. Numai tu și cei de la AoN-Subs ce au mai encodat în halul ăsta. Dacă nu aveți PC-uri de encode-uri calitative, lăsați-vă! Apucați-vă de altceva. În alte detalii nu intru că dau ceață.

Așa că, ai 2 opțiuni:
1. Faci ceva ”modern” cu setări decente. Aq-mode=3, aq-strength=0.85, subme=10, me=umh, bframes=16 și ar trebui să iasă mai bine. Timpul de encode va fi ceva mai mare dar va merita.
2. Nu mai encodezi în viața ta!

Te îndrum spre a 2-a. Dată fiind situația de față.

Niciun comentariu